» » Dr. Hook - Timeless (Definitive 40 Songs Collection)
Информация к новости
  • Просмотров: 72
  • Автор: robot318
  • Дата: 14-05-2014, 15:51
14-05-2014, 15:51

Dr. Hook - Timeless (Definitive 40 Songs Collection)

Категория: Музыка

Dr. Hook - Timeless (Definitive 40 Songs Collection)


Формат: APE, (image + .cue), lossless
Год выпуска: 2014
Страна: USA
Жанр: Rock
Продолжительность: 02:15:52
Размер: 821.98 Mb

CD 1 01:06:50

01. Sylvia's Mother 1972
02. Carry Me Carrie 1972
03. The Ballad Of Lucy Jordan 1974
04. Only Sixteen 2002
05. A Little Bit More 2002
06. If Not You 2002
07. A Couple More Years 1996
08. More Like The Movies 1976
09. The Radio 1996
10. I Don't Want To Be Alone Tonight 1996
11. Sharing The Night Together 2002
12. Storms Never Last 1978
13. When You're In Love With A Beautiful Woman 1996
14. Knowing She's There 1978
15. Better Love Next Time 2002
16. I Gave Her Comfort 1978
17. In Over My Head 1978
18. Sexy Eyes 1979
19. Girls Can Get It 1980
20. Years From Now 1971

eac
Exact Audio Copy V0.99 prebeta 5 from 4. May 2009

EAC extraction logfile from 11. May 2014, 10:06

Dr. Hook / Timeless [Disc 1 of 2]

Used drive : hp CDDVDW SH-216BB Adapter: 0 ID: 0

Read mode : Secure
Utilize accurate stream : Yes
Defeat audio cache : Yes
Make use of C2 pointers : No

Read offset correction : 6
Overread into Lead-In and Lead-Out : No
Fill up missing offset samples with silence : Yes
Delete leading and trailing silent blocks : No
Null samples used in CRC calculations : Yes
Used interface : Native Win32 interface for Win NT & 2000

Used output format : Monkey's Audio Lossless Encoder
Selected bitrate : High Lossless Compression
Quality : High
Add ID3 tag : No
Command line compressor : C:\Program Files (x86)\Monkey's Audio\MAC.exe
Additional command line options : -v

TOC of the extracted CD

Track | Start | Length | Start sector | End sector
---------------------------------------------------------
1 | 0:00.00 | 3:50.69 | 0 | 17318
2 | 3:50.69 | 4:20.12 | 17319 | 36830
3 | 8:11.06 | 3:56.71 | 36831 | 54601
4 | 12:08.02 | 2:46.01 | 54602 | 67052
5 | 14:54.03 | 3:15.27 | 67053 | 81704
6 | 18:09.30 | 3:13.02 | 81705 | 96181
7 | 21:22.32 | 3:08.01 | 96182 | 110282
8 | 24:30.33 | 3:40.39 | 110283 | 126821
9 | 28:10.72 | 3:28.35 | 126822 | 142456
10 | 31:39.32 | 3:21.73 | 142457 | 157604
11 | 35:01.30 | 2:53.62 | 157605 | 170641
12 | 37:55.17 | 3:18.40 | 170642 | 185531
13 | 41:13.57 | 2:52.24 | 185532 | 198455
14 | 44:06.06 | 3:28.19 | 198456 | 214074
15 | 47:34.25 | 3:02.49 | 214075 | 227773
16 | 50:36.74 | 3:16.40 | 227774 | 242513
17 | 53:53.39 | 3:43.21 | 242514 | 259259
18 | 57:36.60 | 2:58.07 | 259260 | 272616
19 | 60:34.67 | 3:17.41 | 272617 | 287432
20 | 63:52.33 | 2:57.10 | 287433 | 300717

Range status and errors

Selected range

Filename C:\Users\Arthur\Desktop\Dr. Hook - Timeless [Disc 1 of 2].wav

Peak level 99.8 %
Range quality 100.0 %
Test CRC B615CD31
Copy CRC B615CD31
Copy OK

No errors occurred

AccurateRip summary

Track 1 not present in database
Track 2 not present in database
Track 3 not present in database
Track 4 not present in database
Track 5 not present in database
Track 6 not present in database
Track 7 not present in database
Track 8 not present in database
Track 9 not present in database
Track 10 not present in database
Track 11 not present in database
Track 12 not present in database
Track 13 not present in database
Track 14 not present in database
Track 15 not present in database
Track 16 not present in database
Track 17 not present in database
Track 18 not present in database
Track 19 not present in database
Track 20 not present in database

None of the tracks are present in the AccurateRip database

End of status report


CD 2 01:09:02

01. The Cover Of The Rolling Stone 1973
02. Freakin' At The Freakers' Ball 1972
03. The Millionaire 2002
04. Everybody's Making It Big But Me 1996
05. Levitate 1975
06. Making Love And Music 1975
07. Walk Right In 2002
08. Laying Too Low Too Long 1977
09. Sleeping Late 1977
10. Let The Loose End Drag 1977
11. Clyde 1996
12. Up On The Mountain 1976
13. Jungle To The Zoo 1996
14. What A Way To Go 1977
15. Mountain Mary 1977
16. I Wanna Make The Women Tremble 1977
17. Body Talkin' 1980
18. Baby Makes Her Blue Jeans Talk 1982
19. I Got Stoned And I Missed It 1981
20. Ooh Poo Pah Doo 1981

eac
Exact Audio Copy V0.99 prebeta 5 from 4. May 2009

EAC extraction logfile from 10. May 2014, 23:16

Dr. Hook / Timeless [Disc 2 of 2]

Used drive : hp CDDVDW SH-216BB Adapter: 0 ID: 0

Read mode : Secure
Utilize accurate stream : Yes
Defeat audio cache : Yes
Make use of C2 pointers : No

Read offset correction : 6
Overread into Lead-In and Lead-Out : No
Fill up missing offset samples with silence : Yes
Delete leading and trailing silent blocks : No
Null samples used in CRC calculations : Yes
Used interface : Native Win32 interface for Win NT & 2000

Used output format : Monkey's Audio Lossless Encoder
Selected bitrate : High Lossless Compression
Quality : High
Add ID3 tag : No
Command line compressor : C:\Program Files (x86)\Monkey's Audio\MAC.exe
Additional command line options : -v

TOC of the extracted CD

Track | Start | Length | Start sector | End sector
---------------------------------------------------------
1 | 0:00.00 | 2:54.16 | 0 | 13065
2 | 2:54.16 | 2:47.70 | 13066 | 25660
3 | 5:42.11 | 3:00.49 | 25661 | 39209
4 | 8:42.60 | 2:58.63 | 39210 | 52622
5 | 11:41.48 | 3:05.56 | 52623 | 66553
6 | 14:47.29 | 2:44.50 | 66554 | 78903
7 | 17:32.04 | 3:04.20 | 78904 | 92723
8 | 20:36.24 | 3:16.71 | 92724 | 107494
9 | 23:53.20 | 3:13.56 | 107495 | 122025
10 | 27:07.01 | 2:56.74 | 122026 | 135299
11 | 30:04.00 | 4:39.41 | 135300 | 156265
12 | 34:43.41 | 2:38.11 | 156266 | 168126
13 | 37:21.52 | 3:19.55 | 168127 | 183106
14 | 40:41.32 | 3:38.74 | 183107 | 199530
15 | 44:20.31 | 2:40.15 | 199531 | 211545
16 | 47:00.46 | 2:51.56 | 211546 | 224426
17 | 49:52.27 | 3:05.03 | 224427 | 238304
18 | 52:57.30 | 3:56.47 | 238305 | 256051
19 | 56:54.02 | 6:04.60 | 256052 | 283411
20 | 62:58.62 | 6:03.21 | 283412 | 310657

Range status and errors

Selected range

Filename C:\Users\Arthur\Desktop\Dr. Hook - Timeless [Disc 2 of 2].wav

Peak level 99.8 %
Range quality 100.0 %
Test CRC E17EA62C
Copy CRC E17EA62C
Copy OK

No errors occurred

AccurateRip summary

Track 1 not present in database
Track 2 not present in database
Track 3 not present in database
Track 4 not present in database
Track 5 not present in database
Track 6 not present in database
Track 7 not present in database
Track 8 not present in database
Track 9 not present in database
Track 10 not present in database
Track 11 not present in database
Track 12 not present in database
Track 13 not present in database
Track 14 not present in database
Track 15 not present in database
Track 16 not present in database
Track 17 not present in database
Track 18 not present in database
Track 19 not present in database
Track 20 not present in database

None of the tracks are present in the AccurateRip database

End of status report

Доп. информация:

Universal Music TV / 5347683 / UK

Скачать Dr. Hook - Timeless (Definitive 40 Songs Collection)

Метки к статье: Dr. Hook, Timeless, Rock

Уважаемый посетитель, Вы зашли на сайт как незарегистрированный пользователь.
Мы рекомендуем Вам зарегистрироваться либо войти на сайт под своим именем.
Информация
Посетители, находящиеся в группе Гости, не могут оставлять комментарии к данной публикации.